#TITLE:The Legend Of Energizer 2;
#SUBTITLE:The Revenge;
#ARTIST:2-mb-Zig-Zag-OMEGA-JagdWolF;
#TITLETRANSLIT:;
#SUBTITLETRANSLIT:;
#ARTISTTRANSLIT:;
#CREDIT:;
#BANNER:energizer-ban.png;
#BACKGROUND:MAX. (period)-bg.png;
#LYRICSPATH:;
#CDTITLE:;
#MUSIC:The Legend Of Energizer 2.mp3;
#OFFSET:0.000;
#SAMPLESTART:100.000;
#SAMPLELENGTH:12.000;
#SELECTABLE:YES;
#BPMS:0.000=332.999,134.000=666.014,139.000=493.217,140.500=330.399,142.000=201.160,142.500=80.000,169.833=299.999,171.000=599.995,268.000=330.000,379.000=300.000,390.000=150.000,400.000=300.000,433.000=599.997,558.000=303.002,688.000=151.502,734.000=606.008,745.000=37.876,747.500=75.752;
#STOPS:143.500=0.700
,170.833=1.000
,268.000=1.000
,378.250=0.500
;
#BGCHANGES:0.000=energizer-ban.png=1.000=0=0=1,
99999=-nosongbg-=1.000=0=0=0 // don't automatically add -songbackground-
;
// cache tags:
#FIRSTBEAT:6.000;
#LASTBEAT:747.500;
#SONGFILENAME:Songs/New Folder/The Legend Of Energizer 2/The Legend Of Energizer 2.sm;
#HASMUSIC:1;
#HASBANNER:1;
#MUSICLENGTH:160.449;
// end cache tags

//---------------dance-single - ----------------
#NOTES:
     dance-single:
     :
     Challenge:
     14:
     1.000,1.000,1.000,1.000,0.386,1015.000,174.000,170.000,0.000,1.000:
0000
0000
0000
0000
,
0000
0000
0101
1020
,
0200
0000
0330
2200
,
0000
3300
0022
0000
0000
0033
1001
0000
,
1010
0000
0101
0000
0022
0000
0000
0033
,
2002
0000
0000
3003
0110
0000
1100
0000
,
0022
0000
0033
2002
,
0000
3003
2020
0000
0000
3030
0011
0000
,
0110
1001
1020
1030
,
0201
0000
0301
0000
0011
0000
0010
0200
,
2000
0000
3300
0220
,
0330
0000
2002
0000
3003
0000
2200
0300
,
3100
0001
0010
0000
2200
0000
0000
3300
,
0022
0000
0000
0033
1000
0100
1000
0200
,
2000
0000
3300
2200
,
0000
3300
0022
0000
0000
0033
0100
1000
,
0100
0010
0001
0100
1020
0000
1000
0000
,
1000
0000
1000
0030
1000
0010
1000
0020
,
0002
0000
0000
0000
0000
0033
2200
0000
,
0000
3300
0022
0000
0000
0033
1000
0100
,
0001
0010
0001
0100
2020
0000
0000
3030
,
0202
0000
0000
0303
1000
0100
0010
0002
,
0200
0000
0303
1002
,
1003
0000
2200
0000
0000
3300
0010
0001
,
0100
0001
1000
0100
0022
0000
0000
0033
,
2200
0000
0000
3300
0011
0000
0001
1000
,
0010
1000
0100
0010
0001
0000
0001
0100
,
0010
1000
0100
0010
0001
0010
0001
0000
,
1000
0100
1000
0000
0001
0100
0010
1000
,
0100
0010
0001
0100
1000
0100
1000
0100
,
1000
0000
0001
0010
0001
0010
0001
0000
,
1000
0100
0010
0001
0100
0010
1000
0100
,
1000
0100
1000
0100
0010
0001
0010
0001
,
1001
0000
2002
0000
,
0000
0000
0000
0000
,
0000
0000
0000
0000
0000
0000
0000
3003
,
1000
0000
0100
0000
0010
0001
0010
0000
1000
0000
0010
0100
0010
0000
0000
0000
1100
0000
0011
0000
0000
0000
0011
0000
,
1100
0000
0000
0000
0110
0000
0000
1001
0000
1000
0000
0100
0000
0010
0000
0000
0000
0000
0000
0000
1001
0000
1000
0000
,
1000
0000
0100
0000
0010
0000
0001
0010
0001
0000
1000
0000
0010
0100
0010
0000
0000
0000
0000
0110
0000
1100
0000
0000
,
0000
0110
0000
0000
1001
0000
0000
1100
0000
0000
0011
0000
0100
0000
0010
0000
1000
0000
0010
0000
0100
0000
0001
0000
,
0010
0000
0100
0000
1000
0220
0000
0000
0000
0000
0000
0000
0000
0000
0000
0000
0000
0000
0000
0000
0000
0000
0000
0000
,
0000
0000
0000
0000
0000
0000
0000
0000
0000
0000
0000
0000
0000
0000
0000
0000
0000
0000
0000
0000
0000
0000
0000
0330
,
0000
0000
0000
0000
0000
0000
0000
0000
0000
0000
0000
0220
0000
0000
0000
0000
0000
0330
1001
0000
0000
0000
0000
0000
,
1000
0100
0010
0001
,
1000
0100
0010
0001
,
1000
0100
0010
0001
,
0010
0100
1000
0001
,
0010
0100
1000
0001
,
0010
0100
1000
0001
,
1000
0001
1000
0001
,
0010
0100
1000
0001
,
0010
0100
1000
1000
,
0100
0010
0001
1000
,
0100
0010
0001
0100
,
0010
0100
0010
0100
,
0010
0100
0010
1000
,
0010
1000
0010
1000
,
0010
1000
0010
0100
,
0001
0100
0001
0100
,
0001
0100
0001
1000
,
0001
1000
0001
1000
,
0001
1000
0001
1000
,
0100
0010
0001
1000
,
0100
0010
0001
1000
,
0100
0010
0001
1000
,
0100
0000
0010
0000
0001
0000
1000
0001
,
1000
0001
1000
0001
1000
0001
0000
0000
,
1001
0000
1000
0000
0100
0001
0010
0000
,
0001
0000
1000
0000
0100
0001
0010
0000
,
0001
0000
0100
0000
0010
1000
0100
0000
,
0010
0000
0001
0000
0100
0010
0001
0000
,
1000
0100
1000
0000
0001
0010
0001
0000
,
1000
0100
1000
0000
0100
0010
0100
0000
,
0101
0000
1010
0000
0011
0000
1001
0200
,
2300
3200
2300
3200
2300
3200
0320
0230
,
0320
0230
0320
0230
0320
0230
0302
0203
,
0302
0203
0302
0203
0302
0203
0320
2030
,
3020
2030
3020
2030
3020
2030
3200
2300
,
3200
2300
3200
2300
3200
2300
3200
0320
,
0032
0023
0230
2300
3020
0230
0302
0023
,
0230
2300
3020
0230
0302
0203
0320
0230
,
0302
0023
0230
2300
3020
2030
3200
2300
,
3020
0230
0302
0023
0230
2300
3020
0230
,
0320
2030
3200
0320
0032
2003
3200
0320
,
0032
0023
0230
0320
0032
2003
3200
0320
,
0230
2300
3200
0320
0032
2003
3200
0320
,
0032
0023
0230
0320
0230
0320
0032
0023
,
1031
1100
0011
0110
,
1100
0101
1010
0101
,
0011
0000
0000
0000
1010
0000
0000
0000
0101
0000
1001
0000
0000
0110
0000
0000
,
1001
0000
0000
0110
0000
0000
0101
0000
0000
1010
0000
0000
0101
0000
0000
0011
,
0000
0000
0110
0000
0000
1001
0000
0000
1100
0000
0000
1001
0000
0000
0000
0000
,
0000
0000
0000
0110
0000
0000
0101
0000
0000
0110
0000
0000
0000
0000
0000
0000
,
0000
0000
0000
0000
0000
0000
0000
1100
0000
0000
0110
0000
0000
1001
0000
0000
,
0101
0000
0000
0110
0000
0000
1001
0000
0000
1001
0000
0000
1001
0000
0000
0000
,
1000
0100
0010
0001
0100
0010
1000
0100
,
0010
0100
1000
0010
0100
0001
0010
0001
,
0010
0000
0001
0000
0100
0000
0000
0000
0010
0100
0010
0100
0010
0000
1000
0100
,
1000
0100
1000
0100
0010
0001
0100
0010
0100
0010
0001
0100
0010
1000
0100
0010
,
0001
0100
0010
1000
0100
1000
0100
1000
0100
0010
0001
0100
0010
1000
0010
1000
,
0010
0000
1000
0100
1000
0100
1000
0000
,
0010
0100
0010
0100
0010
0000
0001
0010
,
0001
0010
0001
0000
1000
0010
1000
0010
,
1000
0100
0001
0010
0001
0010
0001
0100
,
0010
1000
0010
1000
0010
0100
0010
0001
,
0100
0010
1000
0010
0100
0001
0010
0100
,
1000
0010
0100
0010
0001
0100
0010
1000
,
0100
0010
0001
0010
0100
0001
1000
0001
,
1000
0001
2001
3000
0100
0000
0010
0000
,
0001
1000
0100
0010
,
0001
1000
0100
0010
,
0001
0100
0010
1000
,
0010
0100
0001
0010
,
0100
1000
0001
0100
,
0010
1000
0010
0100
,
0010
1000
0010
0100
,
0001
0010
0100
0010
,
0001
1000
0100
0010
,
0100
1000
0001
0100
,
0010
0100
0010
0001
,
0100
0010
1000
0010
,
0100
0010
1000
0100
,
0010
0001
0100
0001
,
0010
0100
1000
0010
,
0100
0001
0010
0100
,
0010
0001
1000
0100
,
0010
0001
0100
1000
,
0100
0001
0010
1000
,
0010
0001
0100
0010
,
1000
0100
0001
0010
,
0100
1000
0010
0001
,
0100
0010
1000
0100
,
0010
0001
0100
0010
,
1000
0100
1000
0100
,
0010
0001
0010
0001
,
0100
0010
1000
0100
,
0010
0001
0100
0010
,
1000
0010
0100
0001
,
0010
0100
0001
1000
,
0010
1000
0001
0000
,
1100
0000
0110
0000
0011
0000
0001
0010
,
0100
0000
0000
0000
1000
0001
0100
0000
0000
0000
0100
0001
1000
0000
0000
0000
,
0110
0000
0011
0000
1100
0000
0010
0100
,
0010
0000
0000
0000
1000
0100
1000
0000
0000
0000
0010
0100
0010
0000
0000
0000
,
1100
0000
0110
0000
1100
0000
1001
0010
,
1100
0000
0000
0000
1000
0100
0010
0000
0000
0000
0010
0001
0100
0000
0000
0000
,
1000
0100
0010
0000
0110
0000
1100
0110
,
0011
0000
0000
0000
1000
0100
1000
0000
0000
0000
0010
0100
0001
0000
0000
0000
,
1100
0100
0011
0000
1100
0000
0110
0011
,
1001
0000
0000
0000
1000
0100
0010
0000
0000
0000
1000
0100
0010
0000
0000
0000
,
0011
0011
0011
0000
1100
0000
0110
0110
,
0110
0000
0000
0000
1000
0001
1000
0000
0000
0000
0010
0100
0010
0000
0000
0000
,
1100
0110
0011
0000
1001
0000
1001
1010
,
1100
0000
0000
0000
0001
0010
0100
0000
0000
0000
0001
0010
0100
0000
0000
0000
,
1010
0110
0011
0000
1010
0000
0110
0001
,
0110
0000
0000
0000
1000
0100
1000
0000
0000
0000
0001
0010
0001
0000
0000
0000
,
1010
0100
1000
0000
0101
0010
0001
0000
,
0011
0100
0010
0000
1100
0100
1000
0000
,
1100
0100
1010
0000
0011
0010
0101
0000
,
1100
1000
0100
0000
0011
0001
0100
0000
,
0110
0010
1000
0000
1100
0100
0010
0000
,
1001
1000
0010
0100
0110
0001
1000
0100
,
0110
0001
0010
0000
1001
0100
1000
0000
,
0010
0100
0001
0100
0010
1000
0100
0000
,
0110
0001
0100
0000
1001
0100
1000
0000
,
0010
1000
0010
0100
0001
0100
0010
1000
,
0100
0010
0001
0100
0010
0001
1000
0100
,
0010
0001
0010
0100
1000
0010
0100
0001
,
0010
0100
0010
0001
0010
0100
1000
0100
,
0010
0001
0100
0010
1000
0010
0100
0010
,
1000
0010
0100
0001
0010
0100
1000
0100
,
0010
0001
0100
0010
1000
0100
0010
0001
,
1001
0000
1000
0100
1000
0000
0100
0010
0100
0000
0011
0000
1100
0000
0000
0000
,
0000
0010
0100
0010
0000
0000
1000
0100
0010
0001
0100
0010
1000
0100
1000
0000
,
0000
0010
0100
0010
0000
1100
0000
0011
0000
1010
0000
0110
0000
0000
0000
0000
,
0000
1000
0100
1000
0000
0000
1000
0100
0010
0001
1000
0100
0010
0001
1000
0000
,
0000
0010
0100
0010
0000
0000
0100
0010
0001
0000
1100
0000
0011
0000
0000
0000
,
0000
1000
0100
1000
0000
1000
0100
0010
0001
1000
0100
0010
0001
1000
0100
0000
,
0000
0010
0100
0010
0000
0000
0001
0010
0001
0000
0011
0000
1010
0000
0000
0000
,
0000
1000
0100
1000
0000
0000
1000
0100
0010
0100
1000
0001
0010
0100
0010
0001
,
2002
0000
0000
0000
,
0000
0000
0000
3003
,
1001
0110
1010
0101
,
1001
0000
0110
0000
,
0000
0000
0000
0000
,
0000
0000
0000
0000
,
0000
0000
0000
0000
0000
0000
0000
0000
1001
0000
0000
0000
0000
0000
0000
0000
0000
0000
0000
0000
0000
0000
0000
0000
1000
0100
0010
0001
1001
0000
0000
0000
;
